[无字]NHK纪录片《巨龙中国-雾霾下的呐喊 ~中国民众与空气污染的搏斗~》(巨龍中国 大気汚染 超大国の苦闘~PM2.5 沈黙を破る人々)2017[TVRip/855 MB]

下载地址

ed2k下载:  [s.dbdyxz.com]NHKスペシャル - 巨龍中国 大気汚染 超大国の苦闘~PM2.5 沈黙を破る人々 (2017.02.05).mp4 897.24 MB
坑王驾到无闲白儿无废话脱水版MP3下载

简介

http://www.bilibili.com/video/av8448177/


magnet:?xt=urn:btih:5aa91ef3fba21ef2b452d64c7d6e12dd725bd276&dn=NHKスペシャル - 巨龍中国 大気汚染 超大国の苦闘~PM2.5 沈黙を破る人々 (2017.02.05).mp4 - 855.67 MB



【截图】http://pic.yupoo.com/appcht/Gdtkdf6d/140VgO.jpg


General
Complete name                  : NHKスペシャル - 巨龍中国 大気汚染 超大国の苦闘~PM2.5 沈黙を破る人々 (2017.02.05).mp4
Format                         : MPEG-4
Format profile                 : Base Media
Codec ID                       : isom
File size                      : 856 MiB
Duration                       : 48mn 59s
Overall bit rate mode          : Variable
Overall bit rate               : 2 442 Kbps
Movie name                     : NHK Special
Recorded date                  : 0
Tagged date                    : UTC 2017-02-05 15:02:45
Writing application            : Lavf56.36.100
Cover                          : Yes
Comment                        : MAX2nd

Video
ID                             : 1
Format                         : AVC
Format/Info                    : Advanced Video Codec
Format profile                 : Baseline@L1.3
Format settings, CABAC         : No
Format settings, ReFrames      : 2 frames
Codec ID                       : avc1
Codec ID/Info                  : Advanced Video Coding
Duration                       : 48mn 59s
Bit rate                       : 2 300 Kbps
Width                          : 1 280 pixels
Height                         : 960 pixels
Display aspect ratio           : 16:9
Frame rate mode                : Constant
Frame rate                     : 29.970 fps
Color space                    : YUV
Chroma subsampling             : 4:2:0
Bit depth                      : 8 bits
Scan type                      : Progressive
Bits/(Pixel*Frame)             : 0.062
Stream size                    : 806 MiB (94%)
Writing library                : x264 core 148 r2579 73ae2d1
Encoding settings              : cabac=0 / ref=2 / deblock=1:0:0 / analyse=0x1:0x111 / me=umh / subme=6 / psy=1 / psy_rd=1.00:0.00 / mixed_ref=1 / me_range=16 / chroma_me=1 / trellis=0 / 8x8dct=0 / cqm=0 / deadzone=21,11 / fast_pskip=1 / chroma_qp_offset=-2 / threads=12 / lookahead_threads=2 / sliced_threads=0 / nr=0 / decimate=1 / interlaced=0 / bluray_compat=0 / constrained_intra=0 / bframes=0 / weightp=0 / keyint=250 / keyint_min=25 / scenecut=40 / intra_refresh=0 / rc_lookahead=40 / rc=2pass / mbtree=1 / bitrate=2300 / ratetol=1.0 / qcomp=0.60 / qpmin=0 / qpmax=69 / qpstep=4 / cplxblur=20.0 / qblur=0.5 / ip_ratio=1.40 / aq=1:1.00

Audio
ID                             : 2
Format                         : AAC
Format/Info                    : Advanced Audio Codec
Format profile                 : LC
Codec ID                       : 40
Duration                       : 48mn 58s
Bit rate mode                  : Variable
Bit rate                       : 128 Kbps
Maximum bit rate               : 233 Kbps
Channel(s)                     : 2 channels
Channel positions              : Front: L R
Sampling rate                  : 48.0 KHz
Compression mode               : Lossy
Stream size                    : 44.8 MiB (5%)




海盗湾 https://thepiratebay.org/


[无字]NHK纪录片《巨龙中国-雾霾下的呐喊 ~中国民众与空气污染的搏斗~》(巨龍中国 大気汚染 超大国の苦闘~PM2.5 沈黙を破る人々)2017[TVRip/855 MB]及更多高清电影下载,就在电影信息资料库http://s.dbdyxz.com

相关