英字《Oi Voskoi / The Shepherds of Calamity 》(1967)The_Shepherds_of_Calamity_(Nikos_Papatakis,_1967)

下载地址

ed2k下载:  [s.dbdyxz.com]The_Shepherds_of_Calamity.mkv 1.91 GB
ed2k下载:  [s.dbdyxz.com]The.Shepherds.of.Calamity.Eng.srt 97.61 KB
坑王驾到无闲白儿无废话脱水版MP3下载

简介


《Oi Voskoi / The Shepherds of Calamity 》(1967)导演: Nikos Papatakis
主演: Olga Karlatos
类型: 剧情
制片国家/地区: 法国 / 希腊
语言: 希腊语
上映日期: 1967
片长: France: 120 分钟 / USA: 96 分钟
IMDb(7.5分): http://www.imdb.com/title/tt0061084/
片源及字幕已迅雷离线完成,可迅雷离线进行下载 。英字: http://sub.makedie.me/xml/sub/600/600817.xml片 乐视云盘:
http://cloud.letv.com/s/X7lSO6pa片 迅雷地址:
thunder://QUFlZDJrOi8vfGZpbGV8VGhlX1NoZXBoZXJkc19vZl9DYWxhbWl0eV8oTmlrb3NfUGFwYXRha2lzLF8xOTY3KS5ta3Z8MTkxMTIxNDE4OXxDRDkyRjY0NUExQzI1OUE3RjVBNThFOTNEMzlFMjU1NnwvWlo=片 QQ旋风地址:
qqdl://ZWQyazovL3xmaWxlfFRoZV9TaGVwaGVyZHNfb2ZfQ2FsYW1pdHlfKE5pa29zX1BhcGF0YWtpcyxfMTk2NykubWt2fDE5MTEyMTQxODl8Q0Q5MkY2NDVBMUMyNTlBN0Y1QTU4RTkzRDM5RTI1NTZ8Lw==
片 资源转自:
http://worldscinema.org/2015/01/nikos-papatakis-oi-voskoi-aka-the-shepherds-of-calamity-1967-2/
https://www.nitroflare.com/view/39F2BC4961E6EC7/The_Shepherds_of_Calamity_(Nikos_Papatakis,_1967).mkv
http://keep2s.cc/file/bbe8ec9320ea8/The_Shepherds_of_Calamity_%28Nikos_Papatakis%2C_1967%29.mkv
http://www.datafile.com/d/TnpNNU1Ua3hNZz0F9/The_Shepherds_of_Calamity_(Nikos_Papatakis,_1967).mkv
利用 网盘中转站http://www.miniup.com(选了datafile网盘)下载此片源

代码
General
Unique ID               : 176816688773677751907345768046012463298 (0x8505A7D2A080D0889B9E98EE28ECF8C2)
Complete name             : The Shepherds of Calamity (Nikos Papatakis, 1967).mkv
Format                 : Matroska
Format version             : Version 4 / Version 2
File size               : 1.78 GiB
Duration                 : 1h 56mn
Overall bit rate           : 2 186 Kbps
Movie name               : The Shepherds of Calamity (Nikos Papatakis, 1967)
Encoded date             : UTC 2014-05-04 21:10:56
Writing application         : mkvmerge v6.9.1 ('Blue Panther') 32bit built on Apr 18 2014 18:15:44
Writing library           : libebml v1.3.0 + libmatroska v1.4.1
Video
ID                     : 1
Format                 : AVC
Format/Info               : Advanced Video Codec
Format profile             : High@L3.1
Format settings, CABAC       : Yes
Format settings, ReFrames     : 9 frames
Codec ID                 : V_MPEG4/ISO/AVC
Duration                 : 1h 56mn
Bit rate                 : 1 992 Kbps
Width                   : 654 pixels
Height                 : 572 pixels
Display aspect ratio         : 16:10
Frame rate mode           : Constant
Frame rate               : 25.000 fps
Color space               : YUV
Chroma subsampling         : 4:2:0
Bit depth               : 8 bits
Scan type               : Progressive
Bits/(Pixel*Frame)         : 0.213
Stream size               : 1.59 GiB (89%)
Writing library           : x264 core 138 r2358 9e941d1
Encoding settings           : cabac=1 / ref=9 / deblock=1:-3:-3 / analyse=0x3:0x113 / me=umh / subme=9 / psy=1 / psy_rd=1.00:0.15 / mixed_ref=1 / me_range=24 / chroma_me=1 / trellis=1 / 8x8dct=1 / cqm=0 / deadzone=21,11 / fast_pskip=0 / chroma_qp_offset=-3 / threads=3 / lookahead_threads=1 / sliced_threads=0 / nr=0 / decimate=1 / interlaced=0 / bluray_compat=0 / constrained_intra=0 / bframes=5 / b_pyramid=2 / b_adapt=1 / b_bias=0 / direct=1 / weightb=1 / open_gop=0 / weightp=2 / keyint=250 / keyint_min=25 / scenecut=40 / intra_refresh=0 / rc_lookahead=50 / rc=2pass / mbtree=1 / bitrate=1992 / ratetol=1.0 / qcomp=0.60 / qpmin=0 / qpmax=69 / qpstep=4 / cplxblur=20.0 / qblur=0.5 / vbv_maxrate=17500 / vbv_bufsize=17500 / nal_hrd=none / ip_ratio=1.40 / aq=1:1.20
Default                 : Yes
Forced                 : No
Audio
ID                     : 2
Format                 : AC-3
Format/Info               : Audio Coding 3
Mode extension             : CM (complete main)
Format settings, Endianness   : Big
Codec ID                 : A_AC3
Duration                 : 1h 56mn
Bit rate mode             : Constant
Bit rate                 : 192 Kbps
Channel(s)               : 2 channels
Channel positions           : Front: L R
Sampling rate             : 48.0 KHz
Bit depth               : 16 bits
Compression mode           : Lossy
Stream size               : 160 MiB (9%)
Language                 : Greek
Default                 : Yes
Forced                 : No
英字《Oi Voskoi / The Shepherds of Calamity 》(1967)The_Shepherds_of_Calamity_(Nikos_Papatakis,_1967)及更多高清电影下载,就在电影信息资料库http://s.dbdyxz.com

相关